A B C D E F G H I J K L M N O P Q R S T U V W X Y Z
1 2 3 4 5 6 7 8 9 0


Что такое *cue и WAV(WV)Pack?

 

1.Что такое *.cue и зачем он нужен?

 

CUE - маленький файл, в котором содержится информация о названии трека, исполнителя, альбоме, длительности трека и т.п. Похож на ID3v1/ID3v2 теги, но выполняет немного другую функцию. Например, с помощью этого файла один большой файл можно "разбить" по трекам, не меняя при этом структуру самого звукового файла.

Немного о структуре. Сам файл - текстовый, информация в нем находится относительно удобоваримом и понятном виде, причем при желании и возможности его можно сделать самому; главное - знать длительность каждой композиции и желательно - названия треков.
Очень часто в архивах с музыкой попадается файл с расширением *.cue.
Это бывает когда альбом не разбит на треки.

С помощью программы CUE Splitter и этого файла можно разбить данный файл.

 

1. Скачиваем программу отсюда Medieval CUE Splitter

(программа абсолютно бесплатная)
2. Устанавливаем.
3. Открываем наш *.cue файл.
4. Жмем разрезать, указываем куда.

Готово!!!

 

Внимание!!! Файл CUE и звуковой файл должны лежать в одной директории (т. е. в одной папке).

 

1a. Как еще можно использовать cue?

 

Смотря для чего. Для проигрывания музыки необходим программный плейер и плагин к нему (при необходимости).
Если вы используете Winamp - к нему нужен плагин.
Если вы используете Foobar2000 - плагин ему не нужен.
Просто открываете cue плейером.
Также, cue можно использовать для записи аудиодисков.

(На примере Nero): открываете программу -> выбираете "Создание АудиоСД" -> жмете кнопку "Открыть" -> в выпадающем меню "Типы файлов" выбираете "Образы дисков" -> находите свой cue и открываете. После чего выбираете скорость прожига и прожигаете диск. Для тех, кто хочет проделать эту операцию в первый раз - тренируйтесь на RW.

 

PS: по умолчанию работает только для wav/mp3. Для остальных форматов (ape/flac/ogg и др.) - потребуются плагины.

1b. Некоторые советы

 

Для того чтобы CUE Splitter работал более корректно советую также установить программу Monkey's Audio (программа тоже бесплатная). На первых порах он выдавал мне что движок APE деактивирован, но после установки данной программы стало возможно разбивать файлы не только во FLAC-формате, но и в APE-формате.

Если файл cue не разбивается или программа сообщает. что не может найти данный файл, нужно проверить данный файл. Это производится следующим образом:
открываем cue-файл с помощью программы блокнот или любым текстовым редактором.
смотрим или 3 или 5-6 строку сверху (в зависимости от того какой файл).

 
Примеры:

 

Файл CUE открытый с помощью программы блокнот
Пример №1


PERFORMER \\\\"Красные Маки\\\\"
TITLE \\\\"Доктор Шлягер представляет\\\\"
FILE \\\\"Доктор Шлягер представляет\\\\".wav (аре или flac)\\\\" WAVE
TRACK 01 AUDIO
TITLE \\\\"Если не расстанемся\\\\"
INDEX 01 00:00:00
TRACK 02 AUDIO
TITLE \\\\"Анютины глазки\\\\"
INDEX 01 03:59:62
TRACK 03 AUDIO
TITLE \\\\"Из-за тебя\\\\"
------------------------------------------------

 

Пример №2


REM GENRE Jazz
REM DATE 2002
REM DISCID 7D0BA60A
REM COMMENT \\\\"ExactAudioCopy v0.95b4\\\\"
PERFORMER \\\\"Horonko - Orkestr\\\\"
TITLE \\\\"Strashnye Pesni\\\\"
FILE \\\\"Horonko - Orkestr - Strashnye Pesni.ape (wav или flac)\\\\" WAVE
TRACK 01 AUDIO
TITLE \\\\"Chubchik\\\\"
PERFORMER \\\\"Horonko - Orkestr\\\\"
FLAGS DCP
INDEX 01 00:00:00
TRACK 02 AUDIO
----------------------------------------------------------------------

 

Выделенное красным и считается расширением cue-файла. В этой строчке и нужно менять данное расширение (или APE, или FLAC, или WAV) в зависимости от аудиофайла.
Если аудиофайл APE, то и cue-файл должен быть прописан как APE и т.д.
Если программа говорит вам, что все равно не находит данный файл попробуйте в этой же строке найти орфографические ошибки и исправьте их (но это бывает не так часто, хотя бывает). В принципе в этой строке можно менять расширение на wav - так как он является исходным форматом для сжатия из которого и получается FLAC и APE.

 

2.WAVPack (.wv) что  это такое?

 

Последнее время в сети стали всё чаще попадаться архивы при разархивировании которых вы не находите CUE-файл, а видите только один звуковой файл, хотя в релизе и было написано Аудио кодек: WAVPack; Тип рипа: image+.cue - eac_wv_cue_log или, например Формат: WAVPack .ISO.WV (.wv,.cue,.log,covers).

Что делать?
Данное расширение открывается программой WinRar - также как и обыкновенный архив. Щелкаем мышкой, далее Открыть с помощью - выбираем WinRar.
Там находим и cue, и сам файл, и все что написано в релизе.

 

Заключение:
Существует еще множество программ для разбивки cue на треки. Среди них медиапроирыватели Foobar2000 и AIMP2, Exact Audio Copy и др. Но самая простая и эффективная программа для начинающих это, на мой взгляд, CUE Splitter.
Не бойтесь эксперементировать сами. Пробуйте разные варианты и у вас все получится.

© 2008-2016 flacmusic.info