A B C D E F G H I J K L M N O P Q R S T U V W X Y Z
1 2 3 4 5 6 7 8 9 0


Рип СD диска программой EAC образом (image+.cue) в Test and Copy, Руководство:

Нам потребуется софт:

1. EAC
2. EZ CD Audio Converter

Установку программы я пропущу там все просто возьмемся за настройки

И так запустили EAC и жмем F9:























Все галочки расставляем как на скринах. Прежде чем вы начнёте конфигурировать дальше - надо выйти из EAC, он сохраняет конфигурацию в момент выхода.


Возвращаемся в программу, нажимаем F10 и настраиваем EAC для вашего привода:






Значение оффсетов для ВАШЕГО привода необходимо найти в таблице по ссылке: (+48 это для моего привода)

driveoffsets

Большинство современных дисководов поддерживают CD-Text. Так что можно ставить "Дисковод поддерживает чтение информации CD-Text". Если ваш дисковод не поддерживает данную функцию, галочку ставить не надо.





Вкладка запись! Важно не только правильно риповать диски но так же правильно их записывать.

Смещение записи рассчитывается по формуле: смещение записи = коррекция комбинированного смещения чтения/записи - коррекция смещения чтения

Так что на запись каждый рассчитает себе сам свое смещение (в моем случае +18)




Все закрываем программу вставляем диск в привод и запускаем EAC что бы рипнуть диск.

Выбираем базу откуда будут подтягивать теги:



Как видите все на английском не бойтесь исправить - это пользовательская база и кто как ввел данные так и сохранило. Мы же с Вами за качество так тогда руками исправим.



Далее треклист тоже впишем руками как на заднике диска:





Как бы уже все приведено в правильный вид



Когда все проверили точки буквы жмем: действия - протестировать и скопировать образ.. - в несжатом виде



Далее указываем папку куда сохранить рип.

В конце рипа у нас будет 3 файла: это wav, cue и log. Ни в коем случае нельзя log править руками!!!
(Если сделали ошибку удаляем рип с ошибкой и рипуем по новой)

Этот log-файл выглядит так:

Exact Audio Copy V1.0 beta 3 from 29. August 2011

EAC extraction logfile from 17. December 2013, 21:25

Верка Сердючка / Чита Дрита

Used drive : PLEXTOR CD-R PX-W4824A Adapter: 3 ID: 0

Read mode : Secure
Utilize accurate stream : Yes
Defeat audio cache : Yes
Make use of C2 pointers : No

Read offset correction : 98 Должно быть смещение вашего привода
Overread into Lead-In and Lead-Out : No
Fill up missing offset samples with silence : Yes
Delete leading and trailing silent blocks : No
Null samples used in CRC calculations : Yes
Used interface : Installed external ASPI interface

Used output format : Internal WAV Routines
Sample format : 44.100 Hz; 16 Bit; Stereo


TOC of the extracted CD

Track | Start | Length | Start sector | End sector
---------------------------------------------------------
1 | 0:00.00 | 3:14.70 | 0 | 14619
2 | 3:14.70 | 2:27.33 | 14620 | 25677
3 | 5:42.28 | 2:44.22 | 25678 | 37999
4 | 8:26.50 | 2:55.21 | 38000 | 51145
5 | 11:21.71 | 3:46.03 | 51146 | 68098
6 | 15:07.74 | 3:52.38 | 68099 | 85536
7 | 19:00.37 | 3:48.39 | 85537 | 102675
8 | 22:49.01 | 3:03.16 | 102676 | 116416
9 | 25:52.17 | 4:02.66 | 116417 | 134632
10 | 29:55.08 | 3:13.67 | 134633 | 149174
11 | 33:09.00 | 3:43.65 | 149175 | 165964
12 | 36:52.65 | 3:39.13 | 165965 | 182402
13 | 40:32.03 | 3:10.69 | 182403 | 196721
14 | 43:42.72 | 4:56.72 | 196722 | 218993


Range status and errors

Selected range

Filename D:\rip-flacmusic.info\Верка Сердючка - Чита Дрита.wav

Peak level 99.9 %
Extraction speed 6.9 X
Range quality 99.9 %
Test CRC F6DEC337
Copy CRC F6DEC337

Copy OK

No errors occurred


AccurateRip summary

Track 1 accurately ripped (confidence 1) [E99F7D71] (AR v2)
Track 2 accurately ripped (confidence 1) [B190C03C] (AR v2)
Track 3 accurately ripped (confidence 1) [88CCA0DF] (AR v2)
Track 4 accurately ripped (confidence 1) [290DE393] (AR v2)
Track 5 accurately ripped (confidence 1) [4ED972A0] (AR v2)
Track 6 accurately ripped (confidence 1) [15D7DC54] (AR v2)
Track 7 accurately ripped (confidence 1) [C5D8D780] (AR v2)
Track 8 accurately ripped (confidence 1) [4FFF99D5] (AR v2)
Track 9 accurately ripped (confidence 1) [A9529E9A] (AR v2)
Track 10 accurately ripped (confidence 1) [D4E305ED] (AR v2)
Track 11 accurately ripped (confidence 1) [6107C73F] (AR v2)
Track 12 accurately ripped (confidence 1) [A7A35612] (AR v2)
Track 13 accurately ripped (confidence 1) [128C39F7] (AR v2)
Track 14 accurately ripped (confidence 1) [DC5C9574] (AR v2)

All tracks accurately ripped

End of status report

==== Log checksum B51F7CC935146A026E0A9DB317949022F4346223398CD1CE1D5DDB7863F2DA08 ====


В логе красным выделил пункты на которые стоит обратить внимание!!!


Далее упаковать все для экономии места на диске и удобства хранения

Продолжение будет...

На выходе получится APE файл, который можно играть WinAmp или foobar2000 (если поставить PlugIn) и вот собственно пара APE & CUE - это и есть упакованный имидж.
К релизу прикладываем получившийся APE, CUE и обязательно LOG. Очень желательно также отсканировать обложки диска и приложить к релизу.
В случае, если диск содержит мультимедиа-часть (клипы и прочее), надо открыть диск Проводником Windows, - и вы увидите там обычные файлы. Их и надо скопировать в папку (скажем, "Data") и приложить к раздаче.
На этом ваши мучения закончены
© 2008-2016 flacmusic.info