Related News

Gary Moore - Wild Frontier (1987) [Japan Remastered 2008]
Gary Moore - Live at Montreux 2010 (2011)
Gary Moore - Run For Cover (1985) [Japan Remastered 2008]
Gary Moore - Music BOX (2003)
Gary Moore - We Want Moore! [Japan] (1984)
Gary Moore - The Platinum Collection [3CD] (2006)
Gary Moore - Wild Frontier (1987)
Gary Moore - Bad For You Baby (2008)
Gary Moore - G-Force (1985)
Gary Moore - Out In The Fields - The Very Best Of [2CD] (1998)

Gary Moore - Out In The Fields - The Very Best Of (1998)

Other music / Rock, Metal maestro 0 4 196  16.10.16 
Gary Moore - Out In The Fields - The Very Best Of (1998)Performer: Gary Moore
Album: Out In The Fields - The Very Best Of
Label: Virgin Records. Made in UK.
Catalog #: CDV2871, 7243 8 46687 2 3
Style: Blues Rock, Hard Rock
Year: 1998
Format: FLAC (image + .cue)
Bitrate: lossless
Covers: in archive
Amount of tracks: 15
Size ZIP: ~ 499 mb
Upload: nitroflare.com
Password: without a password




Tracklist:
-----------------
01. Gary Moore - Out In The Fields [4:16]
02. Gary Moore - Over The Hills And Far Away [5:21]
03. Gary Moore - Run For Cover [4:11]
04. Gary Moore - Parisienne Walkways - Edit (Live) [5:49]
05. Gary Moore - Empty Rooms [4:15]
06. Gary Moore - The Loner [5:54]
07. Gary Moore - Military Man [5:37]
08. Gary Moore - After The War [4:05]
09. Gary Moore - Cold Day In Hell [4:24]
10. Gary Moore - Wild Frontier [4:14]
11. Gary Moore - Still In Love With You [5:55]
12. Gary Moore - Wishing Well [4:04]
13. Gary Moore - Friday On My Mind [4:15]
14. Gary Moore - Still Got The Blues [4:09]
15. Gary Moore - Ready For Love [4:24]
--------------------------
Total time [01:10:53]

[spoiler="Log EAC"] Exact Audio Copy V1.0 beta 3 from 29. August 2011

Отчёт EAC об извлечении, выполненном 9. января 2012, 18:20

Gary Moore / Out In The Fields - The Very Best Of

Дисковод: TSSTcorpCDDVDW SH-S223C Adapter: 3 ID: 0

Режим чтения : Достоверность
Использование точного потока : Да
Отключение кэша аудио : Да
Использование указателей C2 : Нет

Коррекция смещения при чтении : 697
Способность читать области Lead-in и Lead-out : Нет
Заполнение пропущенных сэмплов тишиной : Да
Удаление блоков с тишиной в начале и конце : Нет
При вычислениях CRC использовались нулевые сэмплы : Да
Интерфейс : Встроенный Win32-интерфейс для Win NT/2000

Выходной формат : Внутренние WAV-операции
Формат сэмплов : 44.100 Гц; 16 бит; стерео


TOC извлечённого CD

Трек | Старт | Длительность | Начальный сектор | Конечный сектор
---------------------------------------------------------------------
1 | 0:00.00 | 4:15.72 | 0 | 19196
2 | 4:15.72 | 5:20.58 | 19197 | 43254
3 | 9:36.55 | 4:11.35 | 43255 | 62114
4 | 13:48.15 | 5:48.47 | 62115 | 88261
5 | 19:36.62 | 4:15.00 | 88262 | 107386
6 | 23:51.62 | 5:53.45 | 107387 | 133906
7 | 29:45.32 | 5:37.13 | 133907 | 159194
8 | 35:22.45 | 4:05.07 | 159195 | 177576
9 | 39:27.52 | 4:24.05 | 177577 | 197381
10 | 43:51.57 | 4:13.43 | 197382 | 216399
11 | 48:05.25 | 5:55.12 | 216400 | 243036
12 | 54:00.37 | 4:04.35 | 243037 | 261371
13 | 58:04.72 | 4:14.53 | 261372 | 280474
14 | 62:19.50 | 4:09.07 | 280475 | 299156
15 | 66:28.57 | 4:23.74 | 299157 | 318955


Характеристики диапазона извлечения и сообщения об ошибках

Выбранный диапазон

Имя файла F:ТоррентGary MooreGary Moore - Out In The Fields - The Very Best Of.wav

Пиковый уровень 99.2 %
Скорость извлечения 3.4 X
Качество диапазона 99.9 %
CRC теста 5BE0991C
CRC копии 53654C88
Копирование... OK

Ошибок не произошло[/spoiler][spoiler="Log Audiochecker"] AUDIOCHECKER v2.0 beta (build 457) - by Dester - opdester@freemail.hu
~~~~~~~~~~~~~~~~~~~~~~~~~~~~~~~~~~
-=== НЕ РЕДАКТИРУЙТЕ ЭТОТ ФАЙЛ! ===-

Путь: ...GaryMoore-OutInTheFields-TheVeryBestOf1998HQ

1 -=- Gary Moore - Out In The Fields - The Very Best Of.flac -=- CDDA (100%)

--NitroFlare.com--
Скачать CD | Download CD




  • 100